<?xml version="1.0" standalone="no"?>
<!DOCTYPE svg PUBLIC "-//W3C//DTD SVG 1.1//EN" "http://www.w3.org/Graphics/SVG/1.1/DTD/svg11.dtd" >
<svg xmlns="http://www.w3.org/2000/svg" xmlns:xlink="http://www.w3.org/1999/xlink" version="1.1">
<metadata>
Created by FontForge 20201107 at Sat May  1 06:37:22 2010
 By 
Copyright WolfieMario 2009
"RuneScape Smooth Chat Bold 2" is based on "RuneScape Chat Bold 2" by "WolfieMario" (http://fontstruct.fontshop.com/fontstructors/wolfiemario), which is based on "RuneScape Chat Bold" by "WolfieMario" (http://fontstruct.fontshop.com/fontstructors/wolfiemario), which is based on "RuneScape Chat" by "WolfieMario" (http://fontstruct.fontshop.com/fontstructors/wolfiemario)
</metadata>
<defs>
<font id="RuneScape-Smooth-Chat-Bold-2" horiz-adv-x="512" >
  <font-face 
    font-family="RuneScape Smooth Chat Bold 2"
    font-weight="400"
    font-variant="small-caps"
    font-stretch="normal"
    units-per-em="1024"
    panose-1="0 0 4 0 0 0 0 0 0 0"
    ascent="896"
    descent="-128"
    x-height="512"
    cap-height="768"
    bbox="0 -128 896 896"
    underline-thickness="51"
    underline-position="77"
    unicode-range="U+000D-2122"
  />
<missing-glyph horiz-adv-x="896" 
d="M448 127v142h-143v-142h143zM590 293v143h-285v-143h285zM448 459v143h-143v-143h143zM590 626v141h-142q-60 0 -101 -41q-42 -42 -42 -100h285zM0 0v896h896v-896h-896z" />
    <glyph glyph-name=".notdef" horiz-adv-x="896" 
d="M448 127v142h-143v-142h143zM590 293v143h-285v-143h285zM448 459v143h-143v-143h143zM590 626v141h-142q-60 0 -101 -41q-42 -42 -42 -100h285zM0 0v896h896v-896h-896z" />
    <glyph glyph-name="glyph1" horiz-adv-x="0" 
 />
    <glyph glyph-name="glyph1" horiz-adv-x="0" 
 />
    <glyph glyph-name="uni000D" unicode="&#xd;" horiz-adv-x="0" 
 />
    <glyph glyph-name="space" unicode=" " horiz-adv-x="256" 
 />
    <glyph glyph-name="exclam" unicode="!" horiz-adv-x="256" 
d="M64 128v128h128v-128h-128zM96 320l-32 64v384h128v-384l-32 -64h-64z" />
    <glyph glyph-name="quotedbl" unicode="&#x22;" horiz-adv-x="448" 
d="M64 640v256h128v-192l-32 -64h-96zM256 640v256h128v-192l-32 -64h-96z" />
    <glyph glyph-name="numbersign" unicode="#" horiz-adv-x="896" 
d="M480 384l32 64l32 64h-128l-32 -64l-32 -64h128zM96 128l32 64l32 64l32 64h-128v64h160l32 64l32 64h-224v32l64 32h192l32 64l32 64l32 64h96v-64l-32 -64l-32 -64h128l32 64l32 64l32 64h96v-64l-32 -64l-32 -64h128v-64h-160l-32 -64l-32 -64h224v-32l-32 -32h-224
l-32 -64l-32 -64l-32 -64h-128l32 64l32 64l32 64h-128l-32 -64l-32 -64l-32 -64h-128z" />
    <glyph glyph-name="dollar" unicode="$" horiz-adv-x="576" 
d="M320 192l64 64v128l-64 64v-256v0zM256 512v192l-64 -64v-64l64 -64v0zM256 64v64h-64l-64 64l-64 64h128l64 -64v256h-64l-64 64l-64 64v64l64 64l64 64h64v64h64v-64h64l64 -64l64 -64h-128l-64 64v-192h64l64 -64l64 -64v-128l-64 -64l-64 -64h-64v-32l-32 -32h-32z
" />
    <glyph glyph-name="percent" unicode="%" horiz-adv-x="768" 
d="M544 192l32 64v64l-32 64l-32 -64v-64l32 -64v0zM512 128l-64 64l-64 64v64l64 64l64 64h64l64 -64l64 -64v-64l-64 -64l-64 -64h-64zM224 512l32 64v64l-32 64l-32 -64v-64l32 -64v0zM128 192v64l64 64l64 64l64 64l64 64l64 64l64 64l64 64h128l-64 -64l-64 -64
l-64 -64l-64 -64l-64 -64l-64 -64l-64 -64l-64 -64h-64zM192 448l-64 64l-64 64v64l64 64l64 64h64l64 -64l64 -64v-64l-64 -64l-64 -64h-64z" />
    <glyph glyph-name="ampersand" unicode="&#x26;" horiz-adv-x="704" 
d="M384 192l64 64v64l-64 64v64h-128l-64 -64v-128l64 -64h128zM384 512v128l-64 64h-64v-128l64 -64h64zM192 128l-64 64l-64 64v128l64 64l64 64l-64 64v128l64 64h192l64 -64l64 -64v-64l-64 -64v-64l64 -64l32 -32l32 32l64 64h64v-64l-64 -64l64 -64l64 -64v-64h-64
l-64 64l-64 64h-64v-64l-64 -64h-256z" />
    <glyph glyph-name="quotesingle" unicode="'" horiz-adv-x="256" 
d="M64 640l32 64l32 64h-64v64l32 64h96v-128l-32 -64l-32 -64h-64z" />
    <glyph glyph-name="parenleft" unicode="(" horiz-adv-x="320" 
d="M192 64l-64 64l-64 64v448l64 64l64 64h128v-64h-64l-64 -64v-448l64 -64h64v-64h-128z" />
    <glyph glyph-name="parenright" unicode=")" horiz-adv-x="320" 
d="M0 64v64h64l64 64v448l-64 64h-64v64h128l64 -64l64 -64v-448l-64 -64l-64 -64h-128z" />
    <glyph glyph-name="asterisk" unicode="*" horiz-adv-x="576" 
d="M256 320v192l-64 -64l-64 -64v64l64 64h-128v64h192l-64 64l-64 64h64l64 -64v128h64v-192l64 64l64 64v-64l-64 -64h128v-64h-192l64 -64l64 -64h-64l-64 64v-128h-64z" />
    <glyph glyph-name="plus" unicode="+" 
d="M192 192v192h-192v64h192v192h128v-192h192v-64h-192v-128l-32 -64h-96z" />
    <glyph glyph-name="comma" unicode="," horiz-adv-x="256" 
d="M64 128v256h128v-192l-32 -64h-96z" />
    <glyph glyph-name="hyphen" unicode="-" 
d="M64 384v64h384v-32l-32 -32h-352z" />
    <glyph glyph-name="period" unicode="." horiz-adv-x="256" 
d="M64 128v64h128v-64h-128z" />
    <glyph glyph-name="slash" unicode="/" horiz-adv-x="448" 
d="M64 128v128l32 64l32 64v64l32 64l32 64v64l32 64l32 64v64l32 64h96v-128l-32 -64l-32 -64v-64l-32 -64l-32 -64v-64l-32 -64l-32 -64v-64l-32 -64h-96z" />
    <glyph glyph-name="zero" unicode="0" horiz-adv-x="576" 
d="M352 256l32 32v320l-32 32h-65l-31 -32v-321l32 -31h64zM256 128l-64 64l-64 64v384l64 64l64 64h128l64 -64l64 -64v-384l-64 -64l-64 -64h-128z" />
    <glyph glyph-name="one" unicode="1" horiz-adv-x="448" 
d="M128 128v64h64v448h-64v64l64 32l64 32h64v-576h64v-64h-256z" />
    <glyph glyph-name="two" unicode="2" horiz-adv-x="576" 
d="M128 128v192l32 64l32 64l64 32l64 32l64 64v64l-64 64l-64 -64l-64 -64l-64 64l64 64l64 64h128l64 -64l64 -64v-64l-32 -64h-1l-31 -32l-64 -32l-64 -32l-64 -32v-128l64 -64h192v-64h-384z" />
    <glyph glyph-name="three" unicode="3" 
d="M128 128l-64 64v64h64l64 -64h64l64 64v192h-128v64h128v128l-64 64h-64l-64 -64h-64v64l64 64h192l64 -64l64 -64v-64l-32 -64l-32 -64l64 -64v-128l-64 -64l-64 -64h-192z" />
    <glyph glyph-name="four" unicode="4" 
d="M256 320v320l-32 -64l-32 -64l-32 -64l-32 -64v-64h128zM256 128v128h-256v128l32 64l32 64l32 64l32 64l32 64l32 64h192v-448h64v-64h-64v-128h-128z" />
    <glyph glyph-name="five" unicode="5" 
d="M192 128l-64 32v0l-32 32l-32 64h64l64 -32v-1l32 -31h32l64 64v192l-64 64h-192v256h352l-32 -64h-192v-128h128l64 -64l64 -64v-192l-64 -64l-64 -64h-128z" />
    <glyph glyph-name="six" unicode="6" horiz-adv-x="576" 
d="M256 192l64 64v128l-64 64l-64 -64v-128l64 -64v0zM192 128l-64 64l-64 64v256l32 64l32 64l32 64l32 32l64 32h64l-32 -64l-32 -64l-32 -64l-32 -64h128l64 -64l64 -64v-128l-64 -64l-64 -64h-128z" />
    <glyph glyph-name="seven" unicode="7" horiz-adv-x="448" 
d="M128 128v192l32 64l32 64l32 64l32 32l64 32v128h-256v64h384v-192l-64 -64l-32 -64l-32 -64l-32 -64l-32 -64v-128h-128z" />
    <glyph glyph-name="eight" unicode="8" horiz-adv-x="576" 
d="M320 192l64 64v128l-64 64l-64 -64v-128l64 -64v0zM320 512l64 64v64l-64 64l-64 -64v-64l64 -64v0zM256 128l-64 64l-64 64v128l64 64l32 32l-32 32l-64 64v64l64 64l64 64h128l64 -64l64 -64v-64l-64 -64l-32 -32l32 -32l64 -64v-128l-64 -64l-64 -64h-128z" />
    <glyph glyph-name="nine" unicode="9" horiz-adv-x="576" 
d="M384 448v192l-64 64l-64 -64v-128l64 -64h64zM256 128v64l64 64l32 64l32 64h-128l-64 64l-64 64v128l64 64l64 64h128l64 -64l64 -64v-256l-32 -64l-32 -64l-32 -64h-1l-31 -32l-64 -32h-64z" />
    <glyph glyph-name="colon" unicode=":" horiz-adv-x="256" 
d="M64 256v64h128v-64h-128zM64 512v64h128v-64h-128z" />
    <glyph glyph-name="semicolon" unicode=";" horiz-adv-x="320" 
d="M0 128v64h64l64 64v192h128v-192l-64 -64l-64 -64h-128zM128 512v64h128v-64h-128z" />
    <glyph glyph-name="less" unicode="&#x3c;" 
d="M384 256l-64 32l-64 32l-64 32l-64 32l-64 32l-64 32v64l64 32l64 32l64 32l64 32l64 32l64 32h64v-64l-64 -32l-64 -32l-64 -32l-64 -32l-64 -32l64 -32l64 -32l64 -32l64 -32l64 -32v-64h-64z" />
    <glyph glyph-name="equal" unicode="=" horiz-adv-x="448" 
d="M0 256v64h448v-32l-32 -32h-416zM0 448v64h448v-32l-32 -32h-416z" />
    <glyph glyph-name="greater" unicode="&#x3e;" horiz-adv-x="576" 
d="M64 256v64l64 32l64 32l64 32l64 32l64 32l-64 32l-64 32l-64 32l-64 32l-64 32v64h64l64 -32l64 -32l64 -32l64 -32l64 -32l64 -32v-64l-64 -32l-64 -32l-64 -32l-64 -32l-64 -32l-64 -32h-64z" />
    <glyph glyph-name="question" unicode="?" horiz-adv-x="576" 
d="M192 128v64h128v-64h-128zM192 256v192l64 64l64 64l64 64v128l-64 64h-64l-64 -64l-64 -64h-128l64 64l64 64l64 64h192l64 -64l64 -64v-128l-64 -64l-64 -64l-64 -64v-128l-32 -64h-96z" />
    <glyph glyph-name="at" unicode="@" horiz-adv-x="896" 
d="M448 320l64 64v128l-64 64l-64 -64l-64 -64v-64l64 -64h64zM704 384v256l-64 64h-320l-64 -64l-64 -64v-128l64 64l64 64l64 64h128l64 -64l64 -64v-128h64zM192 128l-64 64l-64 64v320l64 64l64 64l64 64h448l64 -64l64 -64v-256l-64 -64l-64 -64l-64 64h-64l-64 -64
h-192l-64 64l-64 64v-128l64 -64h512v-64h-576z" />
    <glyph glyph-name="A" unicode="A" horiz-adv-x="576" 
d="M384 512v64l-64 64l-32 32l-32 -32l-64 -64v-64h192zM64 128v512l64 64l64 64h192l64 -64l64 -64v-512h-128v320h-192v-320h-128z" />
    <glyph glyph-name="B" unicode="B" 
d="M256 192l64 64v128l-64 64h-64v-256h64zM256 512l64 64v64l-64 64h-64v-192h64zM64 128v640h256l64 -64l64 -64v-64l-64 -64l-32 -32l32 -32l64 -64v-128l-64 -64l-64 -64h-256z" />
    <glyph glyph-name="C" unicode="C" 
d="M192 128l-64 64l-64 64v384l64 64l64 64h128l64 -64l64 -64l-64 -64l-64 64l-64 64l-64 -64v-384l64 -64l64 64l64 64l64 -64l-64 -64l-64 -64h-128z" />
    <glyph glyph-name="D" unicode="D" 
d="M256 192l64 64v384l-64 64h-64v-512h64zM64 128v640h256l64 -64l64 -64v-384l-64 -64l-64 -64h-256z" />
    <glyph glyph-name="E" unicode="E" horiz-adv-x="448" 
d="M64 128v640h384v-96h-256v-160h128v-96h-128v-192h256v-96h-384z" />
    <glyph glyph-name="F" unicode="F" horiz-adv-x="448" 
d="M64 128v640h384v-96h-256v-160h128v-96h-128v-288h-128z" />
    <glyph glyph-name="G" unicode="G" 
d="M192 128l-64 64l-64 64v384l64 64l64 64h128l64 -64l64 -64l-64 -64l-64 64v32h-128v-416l64 -64l64 64v128h-64v64h128l64 -64v-128l-64 -64l-64 -64h-128z" />
    <glyph glyph-name="H" unicode="H" 
d="M64 128v640h128v-256h128v256h128v-640h-128v288h-128v-288h-128z" />
    <glyph glyph-name="I" unicode="I" horiz-adv-x="256" 
d="M0 128v96h64v448h-64v96h256v-96h-64v-448h64v-96h-256z" />
    <glyph glyph-name="J" unicode="J" 
d="M192 128l-64 64l-64 64l64 64l64 -64l64 -64l64 64v416h-64v96h256v-96h-64v-416l-64 -64l-64 -64h-128z" />
    <glyph glyph-name="K" unicode="K" 
d="M64 128v640h128v-256h64l64 64l64 64v128h128v-128l-64 -64l-64 -64l-64 -64l64 -64l64 -64l64 -64v-128h-128v128l-64 64l-64 64h-64v-256h-128z" />
    <glyph glyph-name="L" unicode="L" horiz-adv-x="448" 
d="M64 128v640h128v-544h256v-96h-384z" />
    <glyph glyph-name="M" unicode="M" horiz-adv-x="704" 
d="M64 128v640h64l64 -64l64 -64l64 -64l32 -32l32 32l64 64l64 64l64 64h64v-640h-128v384l-64 -64l-64 -64h-64l-64 64l-64 64v-384h-128z" />
    <glyph glyph-name="N" unicode="N" horiz-adv-x="576" 
d="M64 128v640h128l32 -64l32 -64l32 -64l32 -64l32 -64l32 -64v384h128v-640h-64l-64 64l-32 64l-32 64l-32 64l-32 64l-32 64l-32 64v-448h-128z" />
    <glyph glyph-name="O" unicode="O" horiz-adv-x="576" 
d="M320 192l64 64v384l-64 64h-64l-64 -64v-384l64 -64h64zM192 128l-64 64l-64 64v384l64 64l64 64h192l64 -64l64 -64v-384l-64 -64l-64 -64h-192z" />
    <glyph glyph-name="P" unicode="P" 
d="M256 448l64 64v128l-64 64h-64v-256h64zM64 128v640h256l64 -64l64 -64v-128l-64 -64l-64 -64h-128v-256h-128z" />
    <glyph glyph-name="Q" unicode="Q" horiz-adv-x="576" 
d="M256 192l64 64l-64 64h128v320l-64 64h-64l-64 -64v-384l64 -64v0zM192 128l-64 64l-64 64v384l64 64l64 64h192l64 -64l64 -64v-384l-32 -32l32 -32l64 -64h-128l-64 64l-64 -64h-128z" />
    <glyph glyph-name="R" unicode="R" 
d="M320 448v192l-64 64h-64v-256h128zM64 128v640h256l64 -64l64 -64v-128l-64 -64l-32 -32l32 -32l64 -64v-192h-128v224h-128v-224h-128z" />
    <glyph glyph-name="S" unicode="S" 
d="M192 128l-64 64l-64 64l64 64l64 -64l64 -64l64 64v128l-64 64h-64l-64 64l-64 64v64l64 64l64 64h128l64 -64l64 -64l-64 -64l-64 64l-64 64l-64 -64v-64l64 -64h64l64 -64l64 -64v-128l-64 -64l-64 -64h-128z" />
    <glyph glyph-name="T" unicode="T" horiz-adv-x="384" 
d="M128 128v544h-128v96h384v-96h-128v-544h-128z" />
    <glyph glyph-name="U" unicode="U" horiz-adv-x="576" 
d="M192 128l-64 64l-64 64v512h128v-512l64 -64l64 64v512h128v-512l-64 -64l-64 -64h-128z" />
    <glyph glyph-name="V" unicode="V" 
d="M224 128l-32 64l-32 64l-32 64v64l-32 64l-32 64v256h128v-320l32 -64l32 -64l32 64l32 64v320h128v-256l-32 -64l-32 -64v-64l-32 -64l-32 -64l-32 -64h-64z" />
    <glyph glyph-name="W" unicode="W" horiz-adv-x="768" 
d="M320 128l-64 64l-64 64l-32 64l-32 64v128l-32 64l-32 64v128h128v-128l32 -64l32 -64v-192l64 -64v256h128v-256l64 64v192l32 64l32 64v128h128v-128l-32 -64l-32 -64v-128l-32 -64l-32 -64l-64 -64l-64 -64h-128z" />
    <glyph glyph-name="X" unicode="X" horiz-adv-x="576" 
d="M64 128v64l32 64l32 64l32 64l32 64l-32 64l-32 64l-32 64l-32 64v64h96l32 -64l32 -64l32 -64l32 -64l32 64l32 64l32 64l32 64h96v-64l-32 -64l-32 -64l-32 -64l-32 -64l32 -64l32 -64l32 -64l32 -64v-64h-96l-32 64l-32 64l-32 64l-32 64l-32 -64l-32 -64l-32 -64
l-32 -64h-96z" />
    <glyph glyph-name="Y" unicode="Y" 
d="M192 128v256l-64 64l-64 64v256h128v-256l64 -64l64 64v256h128v-256l-64 -64l-64 -64v-256h-128z" />
    <glyph glyph-name="Z" unicode="Z" 
d="M64 128v128l32 64l32 64l32 64l32 64l64 64l32 64l16 32h-240v96h384v-64l-32 -64l-32 -64l-64 -64l-32 -64l-32 -64l-32 -64l-32 -64v-32h256v-96h-384z" />
    <glyph glyph-name="bracketleft" unicode="[" horiz-adv-x="384" 
d="M64 64v640l32 64h288v-64h-192v-576h192v-64h-320z" />
    <glyph glyph-name="backslash" unicode="\" horiz-adv-x="448" 
d="M288 128l-32 64v64l-32 64l-32 64v64l-32 64l-32 64v64l-32 64l-32 64v128h96l32 -64v-64l32 -64l32 -64v-64l32 -64l32 -64v-64l32 -64l32 -64v-128h-96z" />
    <glyph glyph-name="bracketright" unicode="]" horiz-adv-x="384" 
d="M0 64v64h192v576h-192v64h320v-640l-32 -64h-288z" />
    <glyph glyph-name="asciicircum" unicode="^" horiz-adv-x="576" 
d="M64 448l32 64l32 64l32 64l32 64l32 64h128l32 -64l32 -64l32 -64l32 -64l32 -64h-96l-32 64l-32 64l-32 64l-32 64l-32 -64l-32 -64l-32 -64l-32 -64h-96z" />
    <glyph glyph-name="underscore" unicode="_" horiz-adv-x="640" 
d="M64 128v64h512v-32l-32 -32h-480z" />
    <glyph glyph-name="grave" unicode="`" horiz-adv-x="320" 
d="M64 640v128l32 64l32 32l64 32h64v-32l-64 -32l-43 -22l-21 -42h128v-64l-32 -64h-160z" />
    <glyph glyph-name="a" unicode="a" 
d="M320 192v128h-128v-128h128zM192 128l-64 32v0l-32 32l-32 64v64l64 32l64 32h128v64h-64l-64 -32l-64 -32h-64v64l64 32l64 32h128l64 -32v-1l32 -31l32 -64v-256h-256z" />
    <glyph glyph-name="b" unicode="b" 
d="M256 192l64 64v128l-64 64h-64v-256h64zM64 128v640h128v-256h128l64 -64l64 -64v-128l-64 -64l-64 -64h-256z" />
    <glyph glyph-name="c" unicode="c" horiz-adv-x="448" 
d="M192 128l-64 64l-64 64v128l64 64l64 64h128l64 -64v-64h-64l-32 64h-32l-64 -64v-128l64 -64h32l32 64h64v-64l-64 -64h-128z" />
    <glyph glyph-name="d" unicode="d" 
d="M320 192v256h-64l-64 -64v-128l64 -64h64zM192 128l-64 64l-64 64v128l64 64l64 64h128v256h128v-640h-256z" />
    <glyph glyph-name="e" unicode="e" 
d="M320 320v64l-64 64l-64 -64v-64h128zM192 128l-64 64l-64 64v128l64 64l64 64h128l64 -64l64 -64v-64l-64 -64h-192l64 -64h192v-64h-256z" />
    <glyph glyph-name="f" unicode="f" horiz-adv-x="448" 
d="M64 -64v64l64 64v256h-64l32 64h32v128l64 64l64 64h64l64 -64l64 -64h-128l-32 32l-32 -32v-128h64l-32 -64h-32v-256l-64 -64l-64 -64h-64z" />
    <glyph glyph-name="g" unicode="g" 
d="M256 192l64 64v128l-64 64l-64 -64v-128l64 -64v0zM192 -128l-64 64l-64 64h128l64 -64l64 64v128h-128l-64 64l-64 64v128l64 64l64 64h128l64 -64l64 -64v-384l-64 -64l-64 -64h-128z" />
    <glyph glyph-name="h" unicode="h" 
d="M64 128v640h128v-256h128l64 -64l64 -64v-256h-128v256l-64 64l-64 -64v-256h-128z" />
    <glyph glyph-name="i" unicode="i" horiz-adv-x="256" 
d="M64 128v320h128v-320h-128zM64 512v64h128v-64h-128z" />
    <glyph glyph-name="j" unicode="j" horiz-adv-x="448" 
d="M192 -128l-64 64l-64 64v64h96l32 -64l32 -32l32 32v448h128v-448l-64 -64l-64 -64h-64zM256 512v64h128v-64h-128z" />
    <glyph glyph-name="k" unicode="k" horiz-adv-x="448" 
d="M64 128v640h128v-384l64 64l64 64h64v-64l-64 -64l-64 -64l64 -64l64 -64l64 -64h-128l-64 64l-64 64v-128h-128z" />
    <glyph glyph-name="l" unicode="l" horiz-adv-x="256" 
d="M64 128v640h128v-640h-128z" />
    <glyph glyph-name="m" unicode="m" horiz-adv-x="640" 
d="M64 128v384h192l64 -64l64 64h64l64 -64l64 -64v-256h-128v320l-64 -64v-256h-128v256l-64 64v-320h-128z" />
    <glyph glyph-name="n" unicode="n" 
d="M64 128v384h256l64 -64l64 -64v-256h-128v256l-64 64h-64v-320h-128z" />
    <glyph glyph-name="o" unicode="o" 
d="M256 192l64 64v128l-64 64l-64 -64v-128l64 -64v0zM192 128l-64 64l-64 64v128l64 64l64 64h128l64 -64l64 -64v-128l-64 -64l-64 -64h-128z" />
    <glyph glyph-name="p" unicode="p" 
d="M256 192l64 64v128l-64 64l-64 -64v-192h64zM64 -64v448l64 64l64 64h128l64 -64l64 -64v-128l-64 -64l-64 -64h-128v-192h-128z" />
    <glyph glyph-name="q" unicode="q" 
d="M256 192l64 64v128l-32 32l-32 -32l-64 -64v-64l64 -64v0zM320 -128v256h-128l-64 64l-64 64v64l64 64l64 64l64 64h64l64 -64l64 -64v-320h64l-64 -64l-64 -64l-64 -64v0z" />
    <glyph glyph-name="r" unicode="r" horiz-adv-x="384" 
d="M64 128v384h128v-64l64 64h96l32 -64h-64l-64 -32l-32 -32l-32 -64v-192h-128z" />
    <glyph glyph-name="s" unicode="s" 
d="M96 128l-32 64h192l64 64l-64 64h-64l-64 32l-64 32v64l64 32l64 32h224l32 -64h-256l-32 -32l32 -32h128l64 -64l64 -64v-64l-64 -64h-288z" />
    <glyph glyph-name="t" unicode="t" horiz-adv-x="384" 
d="M192 128l-64 64l-64 64v192h-64l32 64h32v192h128v-192h64l-32 -64h-32v-192l64 -64h64l-32 -64h-96z" />
    <glyph glyph-name="u" unicode="u" 
d="M192 128l-64 64l-64 64v256h128v-256l64 -64h64v320h128v-384h-256z" />
    <glyph glyph-name="v" unicode="v" 
d="M256 128l-64 64l-32 64l-32 64l-32 64l-32 64v64h96l32 -64v-64l32 -64l32 -64l32 64l32 64v64l32 64h96v-64l-32 -64l-32 -64l-32 -64l-32 -64l-64 -64v0z" />
    <glyph glyph-name="w" unicode="w" horiz-adv-x="576" 
d="M192 128l-64 64l-64 64v256h128v-256l64 64h64l64 -64v256h128v-256l-64 -64l-64 -64h-32l-32 64l-32 64l-32 -64l-32 -64h-32z" />
    <glyph glyph-name="x" unicode="x" 
d="M64 128v64l64 64l64 64l-64 64l-64 64v64h64l64 -64l64 -64l64 64l64 64h64v-64l-64 -64l-64 -64l64 -64l64 -64v-64h-64l-64 64l-64 64l-64 -64l-64 -64h-64z" />
    <glyph glyph-name="y" unicode="y" 
d="M128 -128l-64 64v64h64l64 -64h64l64 64v192h-128l-64 64l-64 64v192h128v-192l64 -64h64v256h128v-512l-64 -64l-64 -64h-192z" />
    <glyph glyph-name="z" unicode="z" 
d="M64 128v64l64 64l64 64l64 64l64 64h-256v64h384v-64l-64 -64l-64 -64l-64 -64l-64 -64h256v-64h-384z" />
    <glyph glyph-name="braceleft" unicode="{" horiz-adv-x="384" 
d="M256 64l-64 64l-64 64v128l-64 32l-64 32v64l64 32l64 32v128l64 64l64 64h128v-64h-64l-64 -64v-128l-64 -64l-64 -32l64 -32l64 -64v-128l64 -64h64v-64h-128z" />
    <glyph glyph-name="bar" unicode="|" horiz-adv-x="256" 
d="M64 128v704l32 64h96v-704l-32 -64h-96z" />
    <glyph glyph-name="braceright" unicode="}" horiz-adv-x="384" 
d="M0 64v64h64l64 64v128l64 64l64 32l-64 32l-64 64v128l-64 64h-64v64h128l64 -64l64 -64v-128l64 -32l64 -32v-64l-64 -32l-64 -32v-128l-64 -64l-64 -64h-128z" />
    <glyph glyph-name="asciitilde" unicode="~" horiz-adv-x="704" 
d="M64 384l64 64l64 64l64 64h128l64 -64l64 -64l64 64h128l-64 -64l-64 -64h-128l-64 64l-64 64l-64 -64l-64 -64h-128z" />
    <glyph glyph-name="exclamdown" unicode="&#xa1;" horiz-adv-x="256" 
d="M64 128v384l32 64h64l32 -64v-384h-128zM64 640v128h128v-128h-128z" />
    <glyph glyph-name="cent" unicode="&#xa2;" 
d="M192 320l32 64l32 64l-64 -64v-64v0zM128 64l32 64l10 21l-42 43l-64 64v128l64 64l64 64h96l32 64h64l-32 -64l-11 -22l43 -42l64 -64h-64l-64 64l-32 -64l-16 -32l16 -32l-32 -64v-64h64l64 64h64l-64 -64l-64 -64h-96l-32 -64h-64z" />
    <glyph glyph-name="sterling" unicode="&#xa3;" horiz-adv-x="640" 
d="M0 128v64h128v256h-128v64h128v192l64 64l64 64h192l64 -64l64 -64h-128l-64 64h-64l-64 -64v-192h128v-32l-32 -32h-96v-256h320v-32l-32 -32h-544z" />
    <glyph glyph-name="currency" unicode="&#xa4;" 
d="M256 224l64 32l32 64l-32 64l-64 32l-64 -32l-32 -64l32 -64l64 -32v0zM64 128v64l42 42l-10 22l-32 64l32 64l10 21l-42 43v64h64l42 -43l22 11l64 32l64 -32l21 -11l43 43h64v-64l-43 -43l11 -21l32 -64l-32 -64l-11 -22l43 -42v-64h-64l-43 42l-21 -10l-64 -32l-64 32
l-22 10l-42 -42h-64z" />
    <glyph glyph-name="yen" unicode="&#xa5;" 
d="M128 128v64h64v128h-128v64h128v64h-128v64h128l-64 64l-64 64v128h128v-128l64 -64l64 64v128h128v-128l-64 -64l-64 -64h128v-32l-32 -32h-96v-64h128v-32l-32 -32h-96v-128h64v-32l-32 -32h-224z" />
    <glyph glyph-name="brokenbar" unicode="&#xa6;" horiz-adv-x="256" 
d="M64 128v256l32 64h96v-256l-32 -64h-96zM64 576v256l32 64h96v-256l-32 -64h-96z" />
    <glyph glyph-name="section" unicode="&#xa7;" 
d="M256 192l64 64v128l-64 64l-64 -64v-128l64 -64v0zM128 0v64h128l64 64h-128l-64 64l-64 64v128l64 64l32 32l-32 32l64 64l64 64h128v-64h-128l-64 -64h128l64 -64l64 -64v-128l-64 -64l-32 -32l32 -32l-64 -64l-64 -64h-128z" />
    <glyph glyph-name="dieresis" unicode="&#xa8;" horiz-adv-x="448" 
d="M64 768v128h128v-96l-32 -32h-96zM256 768v128h128v-96l-32 -32h-96z" />
    <glyph glyph-name="copyright" unicode="&#xa9;" horiz-adv-x="768" 
d="M320 256l-64 64l-64 64v128l64 64l64 64h192v-64h-128l-64 -64v-128l64 -64h128v-64h-192zM512 192l64 32l32 32l32 64v256l-32 64l-32 32l-64 32h-256l-64 -32l-32 -32l-32 -64v-256l32 -64l32 -32l64 -32h256zM256 128l-64 32l-64 32l-32 64l-32 64v256l32 64l32 64
l64 32l64 32h256l64 -32l64 -32l32 -64l32 -64v-256l-32 -64l-32 -64l-64 -32l-64 -32h-256z" />
    <glyph glyph-name="ordfeminine" unicode="&#xaa;" horiz-adv-x="384" 
d="M64 448v64h256v-32l-32 -32h-224zM224 640l32 32v32h-128l64 -64h32zM192 576l-64 32v0l-32 32l-32 64l64 64h128l-64 64h-128l64 64h64l64 -32v-1l32 -31l32 -64v-160l-32 -32h-96z" />
    <glyph glyph-name="guillemotleft" unicode="&#xab;" horiz-adv-x="448" 
d="M320 256l-64 64v64l64 64h64l-64 -64v-64l64 -64h-64zM192 192l-64 64l-64 64v64l64 64l64 64h64l-64 -64l-64 -64v-64l64 -64l64 -64h-64z" />
    <glyph glyph-name="logicalnot" unicode="&#xac;" horiz-adv-x="576" 
d="M448 128v128h-384v64h384l64 -32v-160h-64z" />
    <glyph glyph-name="uni00AD" unicode="&#xad;" horiz-adv-x="320" 
d="M64 448v64h192v-32l-32 -32h-160z" />
    <glyph glyph-name="registered" unicode="&#xae;" horiz-adv-x="768" 
d="M416 448l32 32v32l-64 64h-64v-128h96zM256 256v384h128l64 -64l64 -64l-32 -64l-32 -64l64 -64v-64h-64v64l-64 64h-64v-128h-64zM512 192l64 32l32 32l32 64v256l-32 64l-32 32l-64 32h-256l-64 -32l-32 -32l-32 -64v-256l32 -64l32 -32l64 -32h256zM256 128l-64 32
l-64 32l-32 64l-32 64v256l32 64l32 64l64 32l64 32h256l64 -32l64 -32l32 -64l32 -64v-256l-32 -64l-32 -64l-64 -32l-64 -32h-256z" />
    <glyph glyph-name="macron" unicode="&#xaf;" horiz-adv-x="320" 
d="M64 832v64h192v-32l-32 -32h-160z" />
    <glyph glyph-name="degree" unicode="&#xb0;" horiz-adv-x="384" 
d="M224 704l32 32v64l-32 32h-65l-31 -32v-65l32 -31h64zM192 640l-64 32v0l-32 32l-32 64l32 64l32 32l64 32l64 -32v-1l32 -31l32 -64l-32 -64h-1l-31 -32l-64 -32v0z" />
    <glyph glyph-name="plusminus" unicode="&#xb1;" horiz-adv-x="640" 
d="M64 128v32l64 32h128v192h-192v32l64 32h128v192h128v-192h192v-32l-64 -32h-128v-192h192v-32l-32 -32h-480z" />
    <glyph glyph-name="uni00B2" unicode="&#xb2;" horiz-adv-x="384" 
d="M64 576l64 64l64 64l64 64l-64 64l-64 -64h-64l64 64l64 64l64 -64l64 -64l-64 -64l-64 -64h64l64 -64h-256z" />
    <glyph glyph-name="uni00B3" unicode="&#xb3;" horiz-adv-x="384" 
d="M128 576l-64 64l64 64v-64h128l-64 64l64 64l-64 64l-64 -64h-64l64 64l64 64l64 -64l64 -64l-64 -64l64 -64l-64 -64h-128z" />
    <glyph glyph-name="acute" unicode="&#xb4;" horiz-adv-x="384" 
d="M64 704v64l64 64l64 64h64l64 -64v-64h-64l-64 64l-64 -64l-64 -64v0z" />
    <glyph glyph-name="mu" unicode="&#xb5;" 
d="M64 0v512h128v-320h64l64 64v256h128v-256l-64 -64l-64 -64h-128v-96l-32 -32h-96z" />
    <glyph glyph-name="paragraph" unicode="&#xb6;" 
d="M384 192v192h-64v-192h64zM256 448v256l-64 -64v-128l64 -64v0zM384 448v256h-64v-256h64zM192 128v32l64 32v192h-64l-64 64l-64 64v128l64 64l64 64h320v-32l-32 -32h-32v-512l64 -32v-32h-320z" />
    <glyph glyph-name="periodcentered" unicode="&#xb7;" horiz-adv-x="256" 
d="M64 384v128h128v-96l-32 -32h-96z" />
    <glyph glyph-name="cedilla" unicode="&#xb8;" horiz-adv-x="320" 
d="M128 -64l-64 64h128l-32 64l-32 64h64l32 -64l32 -64l-64 -64h-64z" />
    <glyph glyph-name="uni00B9" unicode="&#xb9;" horiz-adv-x="320" 
d="M64 576l64 64v192h-64l64 64l64 -64v-192l64 -64h-192z" />
    <glyph glyph-name="ordmasculine" unicode="&#xba;" horiz-adv-x="384" 
d="M64 512v64h256v-32l-32 -32h-224zM224 704l32 32v64l-32 32h-65l-31 -32v-65l32 -31h64zM192 640l-64 32v0l-32 32l-32 64l32 64l32 32l64 32l64 -32v-1l32 -31l32 -64l-32 -64h-1l-31 -32l-64 -32v0z" />
    <glyph glyph-name="guillemotright" unicode="&#xbb;" horiz-adv-x="448" 
d="M64 256l64 64v64l-64 64h64l64 -64v-64l-64 -64h-64zM192 192l64 64l64 64v64l-64 64l-64 64h64l64 -64l64 -64v-64l-64 -64l-64 -64h-64z" />
    <glyph glyph-name="onequarter" unicode="&#xbc;" horiz-adv-x="704" 
d="M512 256v64h-64l-64 64v192h64v-192h64v64h64v-64h64l-64 -64v-64h-64zM64 320v64l64 64l64 64l64 64l64 64l64 64l64 64l64 64h128l-64 -64l-64 -64l-64 -64l-64 -64l-64 -64l-64 -64l-64 -64l-64 -64h-64zM64 576l64 64v192h-64l64 64l64 -64v-192l64 -64h-192z" />
    <glyph glyph-name="onehalf" unicode="&#xbd;" horiz-adv-x="704" 
d="M384 256l64 64l64 64l64 64l-64 64l-64 -64h-64l64 64l64 64l64 -64l64 -64l-64 -64l-64 -64h64l64 -64h-256zM64 320v64l64 64l64 64l64 64l64 64l64 64l64 64l64 64h128l-64 -64l-64 -64l-64 -64l-64 -64l-64 -64l-64 -64l-64 -64l-64 -64h-64zM64 576l64 64v192h-64
l64 64l64 -64v-192l64 -64h-192z" />
    <glyph glyph-name="threequarters" unicode="&#xbe;" horiz-adv-x="704" 
d="M512 256v64h-64l-64 64v192h64v-192h64v64h64v-64h64l-64 -64v-64h-64zM64 320v64l64 64l64 64l64 64h-128l-64 64l64 64v-64h128l-64 64l64 64l-64 64l-64 -64h-64l64 64l64 64l64 -64l64 -64l-64 -64l64 -64l64 64l64 64l64 64h128l-64 -64l-64 -64l-64 -64l-64 -64
l-64 -64l-64 -64l-64 -64l-64 -64h-64z" />
    <glyph glyph-name="questiondown" unicode="&#xbf;" horiz-adv-x="576" 
d="M192 128l-64 64l-64 64v128l64 64l64 64l64 64v128l32 64h96v-192l-64 -64l-64 -64l-64 -64v-128l64 -64h64l64 64l64 64h128l-64 -64l-64 -64l-64 -64h-192zM256 832v64h128v-64h-128z" />
    <glyph glyph-name="Agrave" unicode="&#xc0;" horiz-adv-x="576" 
d="M384 448v64l-64 64l-32 32l-32 -32l-64 -64v-64h192zM64 128v448l64 64l64 64h192l64 -64l64 -64v-448h-128v256h-192v-256h-128zM384 768l-64 32v0l-32 32h-64l-32 64h64l64 -32l64 -32v-64v0z" />
    <glyph glyph-name="Aacute" unicode="&#xc1;" horiz-adv-x="576" 
d="M384 448v64l-64 64l-32 32l-32 -32l-64 -64v-64h192zM64 128v448l64 64l64 64h192l64 -64l64 -64v-448h-128v256h-192v-256h-128zM192 768v64l64 32l64 32h64v-32l-64 -32l-64 -32l-64 -32v0z" />
    <glyph glyph-name="Acircumflex" unicode="&#xc2;" horiz-adv-x="576" 
d="M384 448v64l-64 64l-32 32l-32 -32l-64 -64v-64h192zM64 128v448l64 64l64 64h192l64 -64l64 -64v-448h-128v256h-192v-256h-128zM128 768l32 64l32 32l64 32h64l64 -32v-1l32 -31l32 -64h-64l-64 64h-64l-64 -64h-64z" />
    <glyph glyph-name="Atilde" unicode="&#xc3;" horiz-adv-x="576" 
d="M384 448v64l-64 64l-32 32l-32 -32l-64 -64v-64h192zM64 128v448l64 64l64 64h192l64 -64l64 -64v-448h-128v256h-192v-256h-128zM128 768v64l64 64h32l32 -64h64l64 64h64l-64 -64l-64 -64h-64l-32 64h-32l-32 -64h-32z" />
    <glyph glyph-name="Adieresis" unicode="&#xc4;" horiz-adv-x="576" 
d="M384 448v64l-64 64l-32 32l-32 -32l-64 -64v-64h192zM64 128v448l64 64l64 64h192l64 -64l64 -64v-448h-128v256h-192v-256h-128zM128 768v128h64v-96l-32 -32h-32zM384 768v128h64v-96l-32 -32h-32z" />
    <glyph glyph-name="Aring" unicode="&#xc5;" horiz-adv-x="576" 
d="M384 448v64l-64 64l-32 32l-32 -32l-64 -64v-64h192zM64 128v448l64 64l64 64h192l64 -64l64 -64v-448h-128v256h-192v-256h-128zM256 768l-64 32v0l-32 32l-32 64h64l64 -64h64l64 64h64l-32 -64h-1l-31 -32l-64 -32h-64z" />
    <glyph glyph-name="AE" unicode="&#xc6;" horiz-adv-x="832" 
d="M384 448v64l-64 64l-32 32l-32 -32l-64 -64v-64h192zM64 128v448l64 64l64 64h192l64 -32l64 32h256v-96h-256v-160h128v-64h-128v-160h320v-96h-448v256h-192v-256h-128z" />
    <glyph glyph-name="Ccedilla" unicode="&#xc7;" 
d="M256 -64l-64 64h128l-32 64l-32 64h-64l-64 64l-64 64v320l64 64l64 64h128l64 -64l64 -64l-64 -64l-64 64l-64 64l-64 -64v-320l64 -64l64 64l64 64l64 -64l-64 -64l-64 -64l32 -64l32 -64l-64 -64h-64z" />
    <glyph glyph-name="Egrave" unicode="&#xc8;" horiz-adv-x="576" 
d="M64 128v576h384v-96h-256v-160h128v-64h-128v-160h320v-96h-448zM320 768l-64 32v0l-32 32h-64l-32 64h64l64 -32l64 -32v-64v0z" />
    <glyph glyph-name="Eacute" unicode="&#xc9;" horiz-adv-x="576" 
d="M64 128v576h384v-96h-256v-160h128v-64h-128v-160h320v-96h-448zM128 768v64l64 32l64 32h64v-32l-64 -32l-64 -32l-64 -32v0z" />
    <glyph glyph-name="Ecircumflex" unicode="&#xca;" horiz-adv-x="576" 
d="M64 128v576h384v-96h-256v-160h128v-64h-128v-160h320v-96h-448zM64 768l32 64l32 32l64 32h64l64 -32v-1l32 -31l32 -64h-64l-64 64h-64l-64 -64h-64z" />
    <glyph glyph-name="Edieresis" unicode="&#xcb;" horiz-adv-x="576" 
d="M64 128v576h384v-96h-256v-160h128v-64h-128v-160h320v-96h-448zM128 768v128h64v-96l-32 -32h-32zM320 768v128h64v-96l-32 -32h-32z" />
    <glyph glyph-name="Igrave" unicode="&#xcc;" horiz-adv-x="256" 
d="M64 128v576h128v-576h-128zM256 768l-64 32v0l-32 32h-64l-32 64h64l64 -32l64 -32v-64v0z" />
    <glyph glyph-name="Iacute" unicode="&#xcd;" horiz-adv-x="256" 
d="M64 128v576h128v-576h-128zM64 768v64l64 32l64 32h64v-32l-64 -32l-64 -32l-64 -32v0z" />
    <glyph glyph-name="Icircumflex" unicode="&#xce;" horiz-adv-x="320" 
d="M64 128v576h128v-576h-128zM0 768l32 64l32 32l64 32h64l64 -32v-1l32 -31l32 -64h-64l-64 64h-64l-64 -64h-64z" />
    <glyph glyph-name="Idieresis" unicode="&#xcf;" horiz-adv-x="256" 
d="M64 128v576h128v-576h-128zM0 768v128h64v-96l-32 -32h-32zM192 768v128h64v-96l-32 -32h-32z" />
    <glyph glyph-name="Eth" unicode="&#xd0;" 
d="M256 192l64 64v384l-64 64h-64v-256h64v-64h-64v-192h64zM64 128v256h-64v64h64v320h256l64 -64l64 -64v-384l-64 -64l-64 -64h-256z" />
    <glyph glyph-name="Ntilde" unicode="&#xd1;" horiz-adv-x="576" 
d="M64 128v576h128l32 -64l32 -64l32 -64l32 -64l32 -64l32 -64v384h128v-576h-128l-32 64l-32 64l-32 64l-32 64l-32 64l-32 64v-384h-128zM128 768v64l64 64h32l32 -64h64l64 64h64l-64 -64l-64 -64h-64l-32 64h-32l-32 -64h-32z" />
    <glyph glyph-name="Ograve" unicode="&#xd2;" horiz-adv-x="576" 
d="M320 192l64 64v320l-64 64h-64l-64 -64v-320l64 -64h64zM192 128l-64 64l-64 64v320l64 64l64 64h192l64 -64l64 -64v-320l-64 -64l-64 -64h-192zM384 768l-64 32v0l-32 32h-64l-32 64h64l64 -32l64 -32v-64v0z" />
    <glyph glyph-name="Oacute" unicode="&#xd3;" horiz-adv-x="576" 
d="M320 192l64 64v320l-64 64h-64l-64 -64v-320l64 -64h64zM192 128l-64 64l-64 64v320l64 64l64 64h192l64 -64l64 -64v-320l-64 -64l-64 -64h-192zM192 768v64l64 32l64 32h64v-32l-64 -32l-64 -32l-64 -32v0z" />
    <glyph glyph-name="Ocircumflex" unicode="&#xd4;" horiz-adv-x="576" 
d="M320 192l64 64v320l-64 64h-64l-64 -64v-320l64 -64h64zM192 128l-64 64l-64 64v320l64 64l64 64h192l64 -64l64 -64v-320l-64 -64l-64 -64h-192zM128 768l32 64l32 32l64 32h64l64 -32v-1l32 -31l32 -64h-64l-64 64h-64l-64 -64h-64z" />
    <glyph glyph-name="Otilde" unicode="&#xd5;" horiz-adv-x="576" 
d="M320 192l64 64v320l-64 64h-64l-64 -64v-320l64 -64h64zM192 128l-64 64l-64 64v320l64 64l64 64h192l64 -64l64 -64v-320l-64 -64l-64 -64h-192zM128 768v64l64 64h32l32 -64h64l64 64h64l-64 -64l-64 -64h-64l-32 64h-32l-32 -64h-32z" />
    <glyph glyph-name="Odieresis" unicode="&#xd6;" horiz-adv-x="576" 
d="M320 192l64 64v320l-64 64h-64l-64 -64v-320l64 -64h64zM192 128l-64 64l-64 64v320l64 64l64 64h192l64 -64l64 -64v-320l-64 -64l-64 -64h-192zM128 768v128h64v-96l-32 -32h-32zM384 768v128h64v-96l-32 -32h-32z" />
    <glyph glyph-name="multiply" unicode="&#xd7;" 
d="M64 192v64l64 64l64 64l-64 64l-64 64v64h64l64 -64l64 -64l64 64l64 64h64v-64l-64 -64l-64 -64l64 -64l64 -64v-64h-64l-64 64l-64 64l-64 -64l-64 -64h-64z" />
    <glyph glyph-name="Oslash" unicode="&#xd8;" horiz-adv-x="640" 
d="M384 192l64 64v256l-64 -64l-32 -64l-32 -64l-64 -64l-32 -32l32 -32h128zM192 320l64 64l32 64l32 64l64 64l32 32l-32 32h-128l-64 -64v-256v0zM0 64v64l64 64l32 32l-32 32v320l64 64l64 64h256l42 -43l22 43l64 64h64v-64l-64 -64l-32 -32l32 -32v-320l-64 -64
l-64 -64h-256l-43 42l-21 -42l-64 -64h-64z" />
    <glyph glyph-name="Ugrave" unicode="&#xd9;" horiz-adv-x="576" 
d="M192 128l-64 64l-64 64v448h128v-448l64 -64h64l64 64v448h128v-576h-320zM384 768l-64 32v0l-32 32h-64l-32 64h64l64 -32l64 -32v-64v0z" />
    <glyph glyph-name="Uacute" unicode="&#xda;" horiz-adv-x="576" 
d="M192 128l-64 64l-64 64v448h128v-448l64 -64h64l64 64v448h128v-576h-320zM192 768v64l64 32l64 32h64v-32l-64 -32l-64 -32l-64 -32v0z" />
    <glyph glyph-name="Ucircumflex" unicode="&#xdb;" horiz-adv-x="576" 
d="M192 128l-64 64l-64 64v448h128v-448l64 -64h64l64 64v448h128v-576h-320zM128 768l32 64l32 32l64 32h64l64 -32v-1l32 -31l32 -64h-64l-64 64h-64l-64 -64h-64z" />
    <glyph glyph-name="Udieresis" unicode="&#xdc;" horiz-adv-x="576" 
d="M192 128l-64 64l-64 64v448h128v-448l64 -64h64l64 64v448h128v-576h-320zM128 768v128h64v-96l-32 -32h-32zM384 768v128h64v-96l-32 -32h-32z" />
    <glyph glyph-name="Yacute" unicode="&#xdd;" 
d="M192 128v256l-64 64l-64 64v192h128v-192l64 -64l64 64v192h128v-192l-64 -64l-64 -64v-256h-128zM192 768v64l64 32l64 32h64v-32l-64 -32l-64 -32l-64 -32v0z" />
    <glyph glyph-name="Thorn" unicode="&#xde;" 
d="M256 320l64 64l64 64l-64 64l-64 64h-64v-256h64zM0 128v64h64v512h-64v64h256v-64h-64v-64h128l64 -64l64 -64v-128l-64 -64l-64 -64h-128v-64h64v-64h-256z" />
    <glyph glyph-name="germandbls" unicode="&#xdf;" 
d="M256 192l64 64v128l-64 64h-64v-256h64zM256 512l64 64v64l-64 64l-64 -64v-128h64zM0 128v64h64v448l64 64l64 64h128l64 -64l64 -64v-64l-64 -64v-64l64 -64v-128l-64 -64l-64 -64h-320z" />
    <glyph glyph-name="agrave" unicode="&#xe0;" 
d="M320 192v128h-128v-128h128zM192 128l-64 32v0l-32 32l-32 64v64l64 32l64 32h128v64h-64l-64 -32l-64 -32h-64v64l64 32l64 32h128l64 -32v-1l32 -31l32 -64v-256h-256zM384 576l-64 32v0l-32 32h-64l-32 64h64l64 -32l64 -32v-64v0z" />
    <glyph glyph-name="aacute" unicode="&#xe1;" 
d="M320 192v128h-128v-128h128zM192 128l-64 32v0l-32 32l-32 64v64l64 32l64 32h128v64h-64l-64 -32l-64 -32h-64v64l64 32l64 32h128l64 -32v-1l32 -31l32 -64v-256h-256zM192 576v64l64 32l64 32h64v-32l-64 -32l-64 -32l-64 -32v0z" />
    <glyph glyph-name="acircumflex" unicode="&#xe2;" 
d="M320 192v128h-128v-128h128zM192 128l-64 32v0l-32 32l-32 64v64l64 32l64 32h128v64h-64l-64 -32l-64 -32h-64v64l64 32l64 32h128l64 -32v-1l32 -31l32 -64v-256h-256zM128 576l32 64l32 32l64 32l64 -32v-1l32 -31l32 -64h-64l-64 64l-64 -64h-64z" />
    <glyph glyph-name="atilde" unicode="&#xe3;" 
d="M320 192v128h-128v-128h128zM192 128l-64 32v0l-32 32l-32 64v64l64 32l64 32h128v64h-64l-64 -32l-64 -32h-64v64l64 32l64 32h128l64 -32v-1l32 -31l32 -64v-256h-256zM128 576v64l64 64h32l32 -64l64 64h64l-32 -64l-32 -64h-64l-32 64h-32l-32 -64h-32z" />
    <glyph glyph-name="adieresis" unicode="&#xe4;" 
d="M320 192v128h-128v-128h128zM192 128l-64 32v0l-32 32l-32 64v64l64 32l64 32h128v64h-64l-64 -32l-64 -32h-64v64l64 32l64 32h128l64 -32v-1l32 -31l32 -64v-256h-256zM128 576v128h64v-96l-32 -32h-32zM320 576v128h64v-96l-32 -32h-32z" />
    <glyph glyph-name="aring" unicode="&#xe5;" 
d="M320 192v128h-128v-128h128zM192 128l-64 32v0l-32 32l-32 64v64l64 32l64 32h128v64h-64l-64 -32l-64 -32h-64v64l64 32l64 32h128l64 -32v-1l32 -31l32 -64v-256h-256zM256 640l64 64l-64 64l-64 -64l64 -64v0zM256 576l-64 64l-64 64l64 64l64 64l64 -64l64 -64
l-64 -64l-64 -64v0z" />
    <glyph glyph-name="ae" unicode="&#xe6;" horiz-adv-x="832" 
d="M320 192v128h-128v-128h128zM640 320v64l-64 64l-64 -64v-64h128zM192 128l-64 32v0l-32 32l-32 64v64l64 32l64 32h128v64h-64l-64 -32l-64 -32h-64v64l64 32l64 32h128l64 -32l64 -32l64 64h128l64 -64l64 -64v-64l-64 -64h-192l64 -64h192v-64h-256l-64 32l-64 -32
h-192z" />
    <glyph glyph-name="ccedilla" unicode="&#xe7;" horiz-adv-x="384" 
d="M192 -64l-64 64h128l-32 64l-32 64l-64 64l-64 64v128l64 64l64 64h192v-96l-32 32h-96l-64 -64v-128l64 -64h96l32 32v-96h-128l32 -64l32 -64l-64 -64h-64z" />
    <glyph glyph-name="egrave" unicode="&#xe8;" 
d="M320 320v64l-64 64l-64 -64v-64h128zM192 128l-64 64l-64 64v128l64 64l64 64h128l64 -64l64 -64v-64l-64 -64h-192l64 -64h192v-64h-256zM384 576l-64 32v0l-32 32h-64l-32 64h64l64 -32l64 -32v-64v0z" />
    <glyph glyph-name="eacute" unicode="&#xe9;" 
d="M320 320v64l-64 64l-64 -64v-64h128zM192 128l-64 64l-64 64v128l64 64l64 64h128l64 -64l64 -64v-64l-64 -64h-192l64 -64h192v-64h-256zM192 576v64l64 32l64 32h64v-32l-64 -32l-64 -32l-64 -32v0z" />
    <glyph glyph-name="ecircumflex" unicode="&#xea;" 
d="M320 320v64l-64 64l-64 -64v-64h128zM192 128l-64 64l-64 64v128l64 64l64 64h128l64 -64l64 -64v-64l-64 -64h-192l64 -64h192v-64h-256zM128 576l32 64l32 32l64 32l64 -32v-1l32 -31l32 -64h-64l-64 64l-64 -64h-64z" />
    <glyph glyph-name="edieresis" unicode="&#xeb;" 
d="M320 320v64l-64 64l-64 -64v-64h128zM192 128l-64 64l-64 64v128l64 64l64 64h128l64 -64l64 -64v-64l-64 -64h-192l64 -64h192v-64h-256zM128 576v128h64v-96l-32 -32h-32zM320 576v128h64v-96l-32 -32h-32z" />
    <glyph glyph-name="igrave" unicode="&#xec;" horiz-adv-x="256" 
d="M64 128v320h128v-320h-128zM256 512l-64 32v0l-32 32h-64l-32 64h64l64 -32l64 -32v-64v0z" />
    <glyph glyph-name="iacute" unicode="&#xed;" horiz-adv-x="256" 
d="M64 128v320h128v-320h-128zM64 512v64l64 32l64 32h64v-32l-64 -32l-64 -32l-64 -32v0z" />
    <glyph glyph-name="icircumflex" unicode="&#xee;" horiz-adv-x="320" 
d="M64 128v320h128v-320h-128zM0 576l32 64l32 32l64 32h64l64 -32v-1l32 -31l32 -64h-64l-64 64h-64l-64 -64h-64z" />
    <glyph glyph-name="idieresis" unicode="&#xef;" horiz-adv-x="256" 
d="M64 128v320h128v-320h-128zM0 512v128h64v-96l-32 -32h-32zM192 512v128h64v-96l-32 -32h-32z" />
    <glyph glyph-name="eth" unicode="&#xf0;" 
d="M256 192l64 64v128l-64 64l-64 -64v-128l64 -64v0zM192 128l-64 64l-64 64v128l64 64l64 64h128v32l-32 32h-32l-64 32l-64 32v64l64 -32l64 -32h32l32 32l64 32v-64l-32 -32l32 -32v-64l-32 -32l32 -32l64 -64v-128l-64 -64l-64 -64h-128z" />
    <glyph glyph-name="ntilde" unicode="&#xf1;" 
d="M64 128v384h256l64 -64l64 -64v-256h-128v256l-64 64l-64 -64v-256h-128zM128 576v64l64 64h32l32 -64l64 64h64l-32 -64l-32 -64h-64l-32 64h-32l-32 -64h-32z" />
    <glyph glyph-name="ograve" unicode="&#xf2;" 
d="M256 192l64 64v128l-64 64l-64 -64v-128l64 -64v0zM192 128l-64 64l-64 64v128l64 64l64 64h128l64 -64l64 -64v-128l-64 -64l-64 -64h-128zM384 576l-64 32v0l-32 32h-64l-32 64h64l64 -32l64 -32v-64v0z" />
    <glyph glyph-name="oacute" unicode="&#xf3;" 
d="M256 192l64 64v128l-64 64l-64 -64v-128l64 -64v0zM192 128l-64 64l-64 64v128l64 64l64 64h128l64 -64l64 -64v-128l-64 -64l-64 -64h-128zM192 576v64l64 32l64 32h64v-32l-64 -32l-64 -32l-64 -32v0z" />
    <glyph glyph-name="ocircumflex" unicode="&#xf4;" 
d="M256 192l64 64v128l-64 64l-64 -64v-128l64 -64v0zM192 128l-64 64l-64 64v128l64 64l64 64h128l64 -64l64 -64v-128l-64 -64l-64 -64h-128zM128 576l32 64l32 32l64 32l64 -32v-1l32 -31l32 -64h-64l-64 64l-64 -64h-64z" />
    <glyph glyph-name="otilde" unicode="&#xf5;" 
d="M256 192l64 64v128l-64 64l-64 -64v-128l64 -64v0zM192 128l-64 64l-64 64v128l64 64l64 64h128l64 -64l64 -64v-128l-64 -64l-64 -64h-128zM128 576v64l64 64h32l32 -64l64 64h64l-32 -64l-32 -64h-64l-32 64h-32l-32 -64h-32z" />
    <glyph glyph-name="odieresis" unicode="&#xf6;" 
d="M256 192l64 64v128l-64 64l-64 -64v-128l64 -64v0zM192 128l-64 64l-64 64v128l64 64l64 64h128l64 -64l64 -64v-128l-64 -64l-64 -64h-128zM128 576v128h64v-96l-32 -32h-32zM320 576v128h64v-96l-32 -32h-32z" />
    <glyph glyph-name="divide" unicode="&#xf7;" horiz-adv-x="640" 
d="M256 192v128h128v-96l-32 -32h-96zM64 384v32l64 32h448v-32l-32 -32h-480zM256 512v128h128v-96l-32 -32h-96z" />
    <glyph glyph-name="oslash" unicode="&#xf8;" 
d="M256 192l64 64v64l-64 -64l-32 -32l32 -32v0zM192 320l64 64l32 32l-32 32l-64 -64v-64v0zM64 64v64l32 64l10 21l-42 43v128l64 64l64 64h128l42 -43l22 43l32 64h32v-64l-32 -64l-11 -22l43 -42v-128l-64 -64l-64 -64h-128l-43 42l-21 -42l-32 -64h-32z" />
    <glyph glyph-name="ugrave" unicode="&#xf9;" 
d="M192 128l-64 64l-64 64v256h128v-256l64 -64l64 64v256h128v-256l-64 -64l-64 -64h-128zM384 576l-64 32v0l-32 32h-64l-32 64h64l64 -32l64 -32v-64v0z" />
    <glyph glyph-name="uacute" unicode="&#xfa;" 
d="M192 128l-64 64l-64 64v256h128v-256l64 -64l64 64v256h128v-256l-64 -64l-64 -64h-128zM192 576v64l64 32l64 32h64v-32l-64 -32l-64 -32l-64 -32v0z" />
    <glyph glyph-name="ucircumflex" unicode="&#xfb;" 
d="M192 128l-64 64l-64 64v256h128v-256l64 -64l64 64v256h128v-256l-64 -64l-64 -64h-128zM128 576l32 64l32 32l64 32l64 -32v-1l32 -31l32 -64h-64l-64 64l-64 -64h-64z" />
    <glyph glyph-name="udieresis" unicode="&#xfc;" 
d="M192 128l-64 64l-64 64v256h128v-256l64 -64l64 64v256h128v-256l-64 -64l-64 -64h-128zM128 576v128h64v-96l-32 -32h-32zM320 576v128h64v-96l-32 -32h-32z" />
    <glyph glyph-name="yacute" unicode="&#xfd;" 
d="M128 -128l-64 64v64h64l64 -64h64l64 64v192h-128l-64 64l-64 64v192h128v-192l64 -64h64v256h128v-512l-64 -64l-64 -64h-192zM192 576v64l64 32l64 32h64v-32l-64 -32l-64 -32l-64 -32v0z" />
    <glyph glyph-name="thorn" unicode="&#xfe;" 
d="M256 192l64 64v128l-64 64h-64v-256h64zM0 -128v64h64v640h-64v64h160l32 -64v-64h128l64 -64l64 -64v-128l-64 -64l-64 -64h-128v-192h64v-64h-256z" />
    <glyph glyph-name="ydieresis" unicode="&#xff;" 
d="M128 -128l-64 64v64h64l64 -64h64l64 64v192h-128l-64 64l-64 64v192h128v-192l64 -64h64v256h128v-512l-64 -64l-64 -64h-192zM128 576v128h64v-96l-32 -32h-32zM320 576v128h64v-96l-32 -32h-32z" />
    <glyph glyph-name="OE" unicode="&#x152;" horiz-adv-x="704" 
d="M320 192v512h-64l-64 -64v-384l64 -64h64zM192 128l-64 64l-64 64v384l64 64l64 64h448v-96h-192v-160h192v-96h-192v-192h192v-96h-448z" />
    <glyph glyph-name="oe" unicode="&#x153;" horiz-adv-x="640" 
d="M320 192v256h-64l-64 -64v-128l64 -64h64zM480 384l32 32v0l-32 32h-96v-64h96zM192 128l-64 64l-64 64v128l64 64l64 64h64l64 -32l64 32h128l64 -64v-64l-64 -64h-128v-128h64l64 64h64v-64l-64 -64h-320z" />
    <glyph glyph-name="Ydieresis" unicode="&#x178;" horiz-adv-x="448" 
d="M192 128v192l-32 64l-32 64l-32 64l-32 64h64l32 -64l32 -64l32 -64l32 64l32 64l32 64h64l-32 -64l-32 -64l-32 -64l-32 -64v-192h-64zM128 640v64h64v-64h-64zM256 640v64h64v-64h-64z" />
    <glyph glyph-name="uni0180" unicode="&#x180;" horiz-adv-x="640" 
d="M256 192v192h-192v32l64 32h128v128l32 64h96v-192h192v-32l-64 -32h-128v-128l-32 -64h-96z" />
    <glyph glyph-name="uni0181" unicode="&#x181;" horiz-adv-x="640" 
d="M128 192v192h-64v64h64v128l32 64h96v-192h128v128l32 64h96v-192h64v-32l-32 -32h-32v-128l-32 -64h-96v192h-128v-128l-32 -64h-96z" />
    <glyph glyph-name="uni0182" unicode="&#x182;" horiz-adv-x="640" 
d="M64 192v384l32 64h96v-192h64v128l32 64h96v-192h64v128l32 64h96v-384l-32 -64h-96v192h-64v-128l-32 -64h-96v192h-64v-128l-32 -64h-96z" />
    <glyph glyph-name="uni0183" unicode="&#x183;" horiz-adv-x="640" 
d="M256 192v128h-192v32l64 32h128v64h-192v32l64 32h128v64l32 64h96v-128h192v-32l-64 -32h-128v-64h192v-32l-64 -32h-128v-64l-32 -64h-96z" />
    <glyph glyph-name="uni0184" unicode="&#x184;" horiz-adv-x="640" 
d="M384 384v64h-128v-64h128zM128 192v128h-64v64h64v64h-64v64h64v64l32 64h96v-128h128v64l32 64h96v-128h64v-32l-32 -32h-32v-64h64v-32l-32 -32h-32v-64l-32 -64h-96v128h-128v-64l-32 -64h-96z" />
    <glyph glyph-name="uni0185" unicode="&#x185;" horiz-adv-x="640" 
d="M256 384v64h-64v-64h64zM448 384v64h-64v-64h64zM64 192v384l32 64h96v-128h64v64l32 64h96v-128h64v64l32 64h96v-384l-32 -64h-96v128h-64v-64l-32 -64h-96v128h-64v-64l-32 -64h-96z" />
    <glyph glyph-name="uni0186" unicode="&#x186;" horiz-adv-x="640" 
d="M256 192v64h-192v32l64 32h128v64h-192v32l64 32h128v64h-192v32l64 32h128l32 64h96v-64h192v-32l-64 -32h-128v-64h192v-32l-64 -32h-128v-64h192v-32l-64 -32h-128v-32l-32 -32h-96z" />
    <glyph glyph-name="uni0187" unicode="&#x187;" horiz-adv-x="640" 
d="M384 320v64h-128v-64h128zM384 448v64h-128v-64h128zM128 192v64h-64v64h64v64h-64v64h64v64h-64v64h64l32 64h96v-64h128l32 64h96v-64h64v-32l-32 -32h-32v-64h64v-32l-32 -32h-32v-64h64v-32l-32 -32h-32v-32l-32 -32h-96v64h-128v-32l-32 -32h-96z" />
    <glyph glyph-name="uni0188" unicode="&#x188;" horiz-adv-x="640" 
d="M256 320v64h-64v-64h64zM448 320v64h-64v-64h64zM256 448v64h-64v-64h64zM448 448v64h-64v-64h64zM64 192v384l32 64h96v-64h64l32 64h96v-64h64l32 64h96v-416l-32 -32h-96v64h-64v-32l-32 -32h-96v64h-64v-32l-32 -32h-96z" />
    <glyph glyph-name="uni0189" unicode="&#x189;" horiz-adv-x="640" 
d="M128 192l-64 64l64 64l64 64l32 32l-32 32l-64 64l-64 64l64 64l64 -64l64 -64v64l32 64h96v-128l64 64l64 64l64 -64l-64 -64l-64 -64l-32 -32l32 -32l64 -64l64 -64l-64 -64l-64 64l-64 64v-96l-32 -32h-96v128l-64 -64l-64 -64v0z" />
    <glyph glyph-name="uni018A" unicode="&#x18a;" horiz-adv-x="640" 
d="M192 384l32 32l-32 32v-64v0zM448 384v64l-32 -32l32 -32v0zM64 192v384l32 64h96v-64l64 -64l64 -64l64 64l64 64v64h128v-416l-32 -32h-96v64l-64 64l-64 64l-64 -64l-64 -64v-64h-128z" />
    <glyph glyph-name="uni018B" unicode="&#x18b;" horiz-adv-x="640" 
d="M192 384l32 32l-32 32v-64v0zM448 384v64l-32 -32l32 -32v0zM64 192v384l32 64h96v-64l64 -64v128h128v-128l64 64v64h128v-416l-32 -32h-96v64l-64 64v-128h-128v128l-64 -64v-64h-128z" />
    <glyph glyph-name="emdash" unicode="&#x2014;" horiz-adv-x="576" 
d="M64 384v32l64 32h384v-32l-64 -32h-384z" />
    <glyph glyph-name="quoteleft" unicode="&#x2018;" horiz-adv-x="256" 
d="M64 640v128l32 64l32 64h64l-32 -64l-32 -64h64v-64l-32 -64h-96z" />
    <glyph glyph-name="quoteright" unicode="&#x2019;" horiz-adv-x="256" 
d="M64 640l32 64l32 64h-64v64l32 64h96v-128l-32 -64l-32 -64h-64z" />
    <glyph glyph-name="quotedblleft" unicode="&#x201c;" horiz-adv-x="448" 
d="M64 640v128l32 64l32 64h64l-32 -64l-32 -64h64v-64l-32 -64h-96zM256 640v128l32 64l32 64h64l-32 -64l-32 -64h64v-64l-32 -64h-96z" />
    <glyph glyph-name="quotedblright" unicode="&#x201d;" horiz-adv-x="448" 
d="M64 640l32 64l32 64h-64v64l32 64h96v-128l-32 -64l-32 -64h-64zM256 640l32 64l32 64h-64v64l32 64h96v-128l-32 -64l-32 -64h-64z" />
    <glyph glyph-name="ellipsis" unicode="&#x2026;" horiz-adv-x="640" 
d="M64 128v64h128v-32l-32 -32h-96zM256 128v64h128v-32l-32 -32h-96zM448 128v64h128v-32l-32 -32h-96z" />
    <glyph glyph-name="Euro" unicode="&#x20ac;" horiz-adv-x="640" 
d="M256 128l-64 64l-64 64v64h-64v64h64v64h-64v64h64v64l64 64l64 64h192l64 -64l64 -64h-128l-64 64h-64l-64 -64l-64 -64h320v-32l-32 -32h-288v-64h256v-32l-32 -32h-224l64 -64l64 -64h64l64 64h128l-64 -64l-64 -64h-192z" />
    <glyph glyph-name="trademark" unicode="&#x2122;" horiz-adv-x="832" 
d="M256 384l64 64l32 32l-32 32l-64 64l-64 -64l-32 -32l32 -32l64 -64v0zM576 384l64 64l32 32l-32 32l-64 64l-64 -64l-32 -32l32 -32l64 -64v0zM192 320l-64 64l-64 64v64l64 64l64 64h128l64 -64l32 -32l32 32l64 64h128l64 -64l64 -64v-64l-64 -64l-64 -64h-128l-64 64
l-32 32l-32 -32l-64 -64h-128z" />
  </font>
</defs>
</svg>
