<?xml version="1.0" standalone="no"?>
<!DOCTYPE svg PUBLIC "-//W3C//DTD SVG 1.1//EN" "http://www.w3.org/Graphics/SVG/1.1/DTD/svg11.dtd" >
<svg xmlns="http://www.w3.org/2000/svg" xmlns:xlink="http://www.w3.org/1999/xlink" version="1.1">
<metadata>
Created by FontForge 20201107 at Tue Feb 23 12:18:19 2010
 By 
Copyright nayfan 2010
</metadata>
<defs>
<font id="RuneScape-UF" horiz-adv-x="448" >
  <font-face 
    font-family="RuneScape UF"
    font-weight="400"
    font-variant="small-caps"
    font-stretch="normal"
    units-per-em="1024"
    panose-1="0 0 4 0 0 0 0 0 0 0"
    ascent="768"
    descent="-256"
    x-height="384"
    cap-height="640"
    bbox="0 -256 768 768"
    underline-thickness="51"
    underline-position="77"
    unicode-range="U+000D-007E"
  />
<missing-glyph horiz-adv-x="768" 
d="M384 109v122h-123v-122h123zM506 251v123h-245v-123h245zM384 393v123h-123v-123h123zM506 536v122h-122q-51 0 -87 -36t-36 -86h245zM0 0v768h768v-768h-768z" />
    <glyph glyph-name=".notdef" horiz-adv-x="768" 
d="M384 109v122h-123v-122h123zM506 251v123h-245v-123h245zM384 393v123h-123v-123h123zM506 536v122h-122q-51 0 -87 -36t-36 -86h245zM0 0v768h768v-768h-768z" />
    <glyph glyph-name="glyph1" horiz-adv-x="0" 
 />
    <glyph glyph-name="glyph1" horiz-adv-x="0" 
 />
    <glyph glyph-name="uni000D" unicode="&#xd;" horiz-adv-x="0" 
 />
    <glyph glyph-name="space" unicode=" " horiz-adv-x="192" 
 />
    <glyph glyph-name="exclam" unicode="!" horiz-adv-x="192" 
d="M0 0v128h128v-128h-128zM0 192v448h128v-448h-128z" />
    <glyph glyph-name="quotedbl" unicode="&#x22;" horiz-adv-x="384" 
d="M0 384v256h128v-256h-128zM192 384v256h128v-256h-128z" />
    <glyph glyph-name="numbersign" unicode="#" horiz-adv-x="832" 
d="M448 256v128h-128v-128h128zM64 0v128h64v64h-128v64h192v128h-192v64h256v64h64v128h128v-128h-64v-64h128v64h64v128h128v-128h-64v-64h128v-64h-192v-128h192v-64h-256v-64h-64v-128h-128v128h64v64h-128v-64h-64v-128h-128z" />
    <glyph glyph-name="dollar" unicode="$" horiz-adv-x="512" 
d="M320 64v192h-64v-192h64zM192 448v128h-64v-128h64zM192 -64v64h-128v64h-64v64h128v-64h64v256h-128v64h-64v192h64v64h128v64h64v-64h128v-128h-64v64h-64v-192h128v-64h64v-256h-64v-64h-128v-64h-64z" />
    <glyph glyph-name="percent" unicode="%" horiz-adv-x="768" 
d="M576 64v192h-64v-192h64zM448 0v64h-64v192h64v64h192v-64h64v-192h-64v-64h-192zM192 384v192h-64v-192h64zM64 64v64h64v64h64v64h64v64h64v64h64v64h64v64h64v64h128v-64h-64v-64h-64v-64h-64v-64h-64v-64h-64v-64h-64v-64h-64v-64h-128zM64 320v64h-64v192h64v64h192
v-64h64v-192h-64v-64h-192z" />
    <glyph glyph-name="ampersand" unicode="&#x26;" horiz-adv-x="768" 
d="M320 64v64h64v128h-64v64h-128v-64h-64v-128h64v-64h128zM320 384v192h-128v-128h64v-64h64zM128 0v64h-64v64h-64v128h64v64h64v128h-64v128h64v64h256v-64h64v-192h-64v-64h64v-64h64v64h128v-64h-64v-128h64v-64h64v-64h-128v64h-64v64h-64v-64h-64v-64h-256z" />
    <glyph glyph-name="quotesingle" unicode="'" horiz-adv-x="192" 
d="M0 384v64h64v-64h-64zM64 448v64h-64v128h128v-192h-64z" />
    <glyph glyph-name="parenleft" unicode="(" horiz-adv-x="320" 
d="M128 -64v64h-64v64h-64v448h64v64h64v64h128v-64h-64v-64h-64v-448h64v-64h64v-64h-128z" />
    <glyph glyph-name="parenright" unicode=")" horiz-adv-x="320" 
d="M0 -64v64h64v64h64v448h-64v64h-64v64h128v-64h64v-64h64v-448h-64v-64h-64v-64h-128z" />
    <glyph glyph-name="asterisk" unicode="*" horiz-adv-x="512" 
d="M64 256v64h64v-64h-64zM320 256v64h64v-64h-64zM64 512v64h64v-64h-64zM320 512v64h64v-64h-64zM192 192v128h-64v64h-128v64h128v64h64v128h64v-128h64v-64h128v-64h-128v-64h-64v-128h-64z" />
    <glyph glyph-name="plus" unicode="+" horiz-adv-x="576" 
d="M192 64v192h-192v64h192v192h128v-192h192v-64h-192v-192h-128z" />
    <glyph glyph-name="comma" unicode="," horiz-adv-x="192" 
d="M0 0v256h128v-256h-128z" />
    <glyph glyph-name="hyphen" unicode="-" 
d="M0 256v64h384v-64h-384z" />
    <glyph glyph-name="period" unicode="." horiz-adv-x="192" 
d="M0 0v64h128v-64h-128z" />
    <glyph glyph-name="slash" unicode="/" horiz-adv-x="384" 
d="M0 0v192h64v192h64v192h64v192h128v-192h-64v-192h-64v-192h-64v-192h-128z" />
    <glyph glyph-name="zero" unicode="0" 
d="M256 128v384h-128v-384h128zM128 0v64h-64v64h-64v384h64v64h64v64h128v-64h64v-64h64v-384h-64v-64h-64v-64h-128z" />
    <glyph glyph-name="one" unicode="1" horiz-adv-x="320" 
d="M0 0v64h64v448h-64v64h64v64h128v-576h64v-64h-256z" />
    <glyph glyph-name="two" unicode="2" 
d="M0 0v256h64v64h64v64h128v192h-128v-64h-128v64h64v64h256v-64h64v-192h-64v-64h-128v-64h-64v-192h256v-64h-384z" />
    <glyph glyph-name="three" unicode="3" 
d="M64 0v64h-64v64h128v-64h128v256h-128v64h128v192h-128v-64h-128v64h64v64h256v-64h64v-192h-64v-64h64v-256h-64v-64h-256z" />
    <glyph glyph-name="four" unicode="4" horiz-adv-x="512" 
d="M256 192v256h-64v-128h-64v-128h128zM256 0v128h-256v192h64v128h64v128h64v64h192v-448h64v-64h-64v-128h-128z" />
    <glyph glyph-name="five" unicode="5" 
d="M64 0v64h-64v64h128v-64h128v320h-256v256h320v-64h-192v-128h192v-64h64v-320h-64v-64h-256z" />
    <glyph glyph-name="six" unicode="6" 
d="M256 64v256h-128v-256h128zM64 0v64h-64v384h64v128h64v64h128v-64h-64v-128h-64v-64h192v-64h64v-256h-64v-64h-256z" />
    <glyph glyph-name="seven" unicode="7" 
d="M64 0v256h64v128h64v64h64v128h-256v64h384v-192h-64v-128h-64v-64h-64v-256h-128z" />
    <glyph glyph-name="eight" unicode="8" 
d="M256 64v256h-128v-256h128zM256 384v192h-128v-192h128zM64 0v64h-64v256h64v64h-64v192h64v64h256v-64h64v-192h-64v-64h64v-256h-64v-64h-256z" />
    <glyph glyph-name="nine" unicode="9" 
d="M256 320v256h-128v-256h128zM128 0v64h64v128h64v64h-192v64h-64v256h64v64h256v-64h64v-384h-64v-128h-64v-64h-128z" />
    <glyph glyph-name="colon" unicode=":" horiz-adv-x="192" 
d="M0 128v64h128v-64h-128zM0 384v64h128v-64h-128z" />
    <glyph glyph-name="semicolon" unicode=";" horiz-adv-x="320" 
d="M0 0v64h64v64h64v192h128v-192h-64v-64h-64v-64h-128zM128 384v64h128v-64h-128z" />
    <glyph glyph-name="less" unicode="&#x3c;" 
d="M192 128v64h-64v64h-64v64h-64v64h64v64h64v64h64v64h192v-64h-64v-64h-64v-64h-64v-64h64v-64h64v-64h64v-64h-192z" />
    <glyph glyph-name="equal" unicode="=" horiz-adv-x="512" 
d="M0 128v64h448v-64h-448zM0 256v64h448v-64h-448z" />
    <glyph glyph-name="greater" unicode="&#x3e;" 
d="M0 128v64h64v64h64v64h64v64h-64v64h-64v64h-64v64h192v-64h64v-64h64v-64h64v-64h-64v-64h-64v-64h-64v-64h-192z" />
    <glyph glyph-name="question" unicode="?" horiz-adv-x="512" 
d="M128 0v64h128v-64h-128zM128 128v192h64v64h64v64h64v256h-192v-64h-64v-64h-64v128h64v64h320v-64h64v-256h-64v-64h-64v-64h-64v-192h-128z" />
    <glyph glyph-name="at" unicode="@" horiz-adv-x="832" 
d="M384 192v64h64v192h-128v-64h-64v-192h128zM640 256v256h-64v64h-320v-64h-64v-64h-64v-64h64v64h64v64h256v-64h64v-192h64zM128 0v64h-64v64h-64v320h64v64h64v64h64v64h448v-64h64v-64h64v-320h-64v-64h-128v64h-128v-64h-256v64h-64v-64h64v-64h512v-64h-576z" />
    <glyph glyph-name="A" unicode="A" horiz-adv-x="512" 
d="M320 384v128h-64v64h-64v-64h-64v-128h192zM0 0v512h64v64h64v64h192v-64h64v-64h64v-512h-128v320h-192v-320h-128z" />
    <glyph glyph-name="B" unicode="B" 
d="M256 64v256h-128v-256h128zM256 384v192h-128v-192h128zM0 0v640h320v-64h64v-192h-64v-64h64v-256h-64v-64h-320z" />
    <glyph glyph-name="C" unicode="C" 
d="M64 0v64h-64v512h64v64h256v-64h64v-64h-128v64h-128v-512h128v64h128v-64h-64v-64h-256z" />
    <glyph glyph-name="D" unicode="D" 
d="M256 64v512h-128v-512h128zM0 0v640h320v-64h64v-512h-64v-64h-320z" />
    <glyph glyph-name="E" unicode="E" 
d="M0 0v640h384v-64h-256v-192h128v-64h-128v-256h256v-64h-384z" />
    <glyph glyph-name="F" unicode="F" 
d="M0 0v640h384v-64h-256v-192h128v-64h-128v-320h-128z" />
    <glyph glyph-name="G" unicode="G" 
d="M64 0v64h-64v512h64v64h256v-64h64v-64h-128v64h-128v-512h128v192h-64v64h192v-256h-64v-64h-256z" />
    <glyph glyph-name="H" unicode="H" 
d="M0 0v640h128v-256h128v256h128v-640h-128v320h-128v-320h-128z" />
    <glyph glyph-name="I" unicode="I" horiz-adv-x="320" 
d="M0 0v64h64v512h-64v64h256v-64h-64v-512h64v-64h-256z" />
    <glyph glyph-name="J" unicode="J" horiz-adv-x="512" 
d="M64 0v64h-64v64h128v-64h128v512h-64v64h256v-64h-64v-512h-64v-64h-256z" />
    <glyph glyph-name="K" unicode="K" horiz-adv-x="512" 
d="M0 0v640h128v-256h64v64h64v64h64v128h128v-128h-64v-64h-64v-64h-64v-128h64v-64h64v-64h64v-128h-128v128h-64v64h-64v64h-64v-256h-128z" />
    <glyph glyph-name="L" unicode="L" 
d="M0 0v640h128v-576h256v-64h-384z" />
    <glyph glyph-name="M" unicode="M" horiz-adv-x="640" 
d="M0 0v640h128v-64h64v-64h64v-64h64v64h64v64h64v64h128v-640h-128v384h-64v-64h-64v-64h-64v64h-64v64h-64v-384h-128z" />
    <glyph glyph-name="N" unicode="N" horiz-adv-x="512" 
d="M0 0v640h128v-64h64v-128h64v-128h64v320h128v-640h-128v128h-64v128h-64v128h-64v-384h-128z" />
    <glyph glyph-name="O" unicode="O" horiz-adv-x="512" 
d="M320 64v512h-192v-512h192zM64 0v64h-64v512h64v64h320v-64h64v-512h-64v-64h-320z" />
    <glyph glyph-name="P" unicode="P" 
d="M256 320v256h-128v-256h128zM0 0v640h320v-64h64v-256h-64v-64h-192v-256h-128z" />
    <glyph glyph-name="Q" unicode="Q" horiz-adv-x="576" 
d="M384 0v64h128v-64h-128zM256 64v64h-64v64h128v384h-192v-512h128zM64 0v64h-64v512h64v64h320v-64h64v-448h-64v-64h-64v-64h-256z" />
    <glyph glyph-name="R" unicode="R" 
d="M256 320v256h-128v-256h128zM0 0v640h320v-64h64v-256h-64v-64h64v-256h-128v256h-128v-256h-128z" />
    <glyph glyph-name="S" unicode="S" 
d="M64 0v64h-64v64h128v-64h128v192h-64v64h-128v64h-64v192h64v64h256v-64h64v-64h-128v64h-128v-128h64v-64h128v-64h64v-256h-64v-64h-256z" />
    <glyph glyph-name="T" unicode="T" 
d="M128 0v576h-128v64h384v-64h-128v-576h-128z" />
    <glyph glyph-name="U" unicode="U" 
d="M64 0v64h-64v576h128v-576h128v576h128v-576h-64v-64h-256z" />
    <glyph glyph-name="V" unicode="V" 
d="M128 0v128h-64v192h-64v320h128v-320h128v320h128v-320h-64v-192h-64v-128h-128z" />
    <glyph glyph-name="W" unicode="W" horiz-adv-x="704" 
d="M192 0v64h-64v128h-64v256h-64v192h128v-192h64v-320h64v256h128v-256h64v320h64v192h128v-192h-64v-256h-64v-128h-64v-64h-256z" />
    <glyph glyph-name="X" unicode="X" horiz-adv-x="512" 
d="M0 0v128h64v128h64v128h-64v128h-64v128h128v-128h64v-64h64v64h64v128h128v-128h-64v-128h-64v-128h64v-128h64v-128h-128v128h-64v128h-64v-128h-64v-128h-128z" />
    <glyph glyph-name="Y" unicode="Y" 
d="M128 0v256h-64v64h-64v320h128v-256h128v256h128v-320h-64v-64h-64v-256h-128z" />
    <glyph glyph-name="Z" unicode="Z" 
d="M0 0v192h64v128h64v64h64v128h64v64h-256v64h384v-128h-64v-128h-64v-64h-64v-128h-64v-128h256v-64h-384z" />
    <glyph glyph-name="bracketleft" unicode="[" horiz-adv-x="384" 
d="M0 -64v704h320v-64h-192v-576h192v-64h-320z" />
    <glyph glyph-name="backslash" unicode="\" horiz-adv-x="384" 
d="M192 0v192h-64v192h-64v192h-64v192h128v-192h64v-192h64v-192h64v-192h-128z" />
    <glyph glyph-name="bracketright" unicode="]" horiz-adv-x="384" 
d="M0 -64v64h192v576h-192v64h320v-704h-320z" />
    <glyph glyph-name="asciicircum" unicode="^" horiz-adv-x="512" 
d="M0 320v64h64v192h64v64h192v-64h64v-192h64v-64h-128v64h-64v192h-64v-192h-64v-64h-128z" />
    <glyph glyph-name="underscore" unicode="_" horiz-adv-x="576" 
d="M0 0v64h512v-64h-512z" />
    <glyph glyph-name="a" unicode="a" 
d="M256 64v128h-128v-128h128zM256 256v64h-128v-64h128zM64 0v64h-64v128h64v64h-64v64h64v64h256v-64h64v-320h-320z" />
    <glyph glyph-name="b" unicode="b" 
d="M256 64v256h-128v-256h128zM0 0v640h128v-256h192v-64h64v-256h-64v-64h-320z" />
    <glyph glyph-name="c" unicode="c" horiz-adv-x="384" 
d="M256 64v64h64v-64h-64zM256 256v64h64v-64h-64zM64 0v64h-64v256h64v64h192v-64h-128v-256h128v-64h-192z" />
    <glyph glyph-name="d" unicode="d" 
d="M256 64v256h-128v-256h128zM64 0v64h-64v256h64v64h192v256h128v-640h-320z" />
    <glyph glyph-name="e" unicode="e" 
d="M256 192v128h-128v-128h128zM64 0v64h-64v256h64v64h256v-64h64v-192h-256v-64h256v-64h-320z" />
    <glyph glyph-name="f" unicode="f" 
d="M0 -192v64h64v320h-64v64h64v192h64v64h192v-64h64v-64h-128v64h-64v-192h64v-64h-64v-320h-64v-64h-128z" />
    <glyph glyph-name="g" unicode="g" 
d="M256 64v256h-128v-256h128zM64 -256v64h-64v64h128v-64h128v192h-192v64h-64v256h64v64h256v-64h64v-512h-64v-64h-256z" />
    <glyph glyph-name="h" unicode="h" 
d="M0 0v640h128v-256h192v-64h64v-320h-128v320h-128v-320h-128z" />
    <glyph glyph-name="i" unicode="i" horiz-adv-x="192" 
d="M0 0v320h128v-320h-128zM0 384v64h128v-64h-128z" />
    <glyph glyph-name="j" unicode="j" horiz-adv-x="384" 
d="M64 -256v64h-64v128h128v-128h64v512h128v-512h-64v-64h-192zM192 384v64h128v-64h-128z" />
    <glyph glyph-name="k" unicode="k" 
d="M0 0v640h128v-320h64v64h128v-64h-64v-64h-64v-64h64v-64h64v-64h64v-64h-128v64h-64v64h-64v-128h-128z" />
    <glyph glyph-name="l" unicode="l" horiz-adv-x="192" 
d="M0 0v640h128v-640h-128z" />
    <glyph glyph-name="m" unicode="m" horiz-adv-x="576" 
d="M0 0v384h256v-64h64v-320h-128v320h-64v-320h-128zM384 0v320h-64v64h128v-64h64v-320h-128z" />
    <glyph glyph-name="n" unicode="n" 
d="M0 0v384h320v-64h64v-320h-128v320h-128v-320h-128z" />
    <glyph glyph-name="o" unicode="o" 
d="M256 64v256h-128v-256h128zM64 0v64h-64v256h64v64h256v-64h64v-256h-64v-64h-256z" />
    <glyph glyph-name="p" unicode="p" 
d="M256 64v256h-128v-256h128zM0 -192v512h64v64h256v-64h64v-256h-64v-64h-192v-192h-128z" />
    <glyph glyph-name="q" unicode="q" horiz-adv-x="512" 
d="M256 64v256h-64v-64h-64v-128h64v-64h64zM256 -256v256h-128v64h-64v64h-64v128h64v64h64v64h192v-64h64v-384h64v-64h-64v-64h-64v-64h-64z" />
    <glyph glyph-name="r" unicode="r" horiz-adv-x="384" 
d="M0 0v384h128v-64h64v-64h-64v-256h-128zM192 320v64h128v-64h-128z" />
    <glyph glyph-name="s" unicode="s" 
d="M0 0v64h256v128h-192v64h-64v64h64v64h320v-64h-256v-64h192v-64h64v-128h-64v-64h-320z" />
    <glyph glyph-name="t" unicode="t" horiz-adv-x="384" 
d="M128 0v64h-64v256h-64v64h64v192h128v-192h64v-64h-64v-256h128v-64h-192z" />
    <glyph glyph-name="u" unicode="u" 
d="M64 0v64h-64v320h128v-320h128v320h128v-384h-320z" />
    <glyph glyph-name="v" unicode="v" 
d="M128 0v128h-64v128h-64v128h128v-128h128v128h128v-128h-64v-128h-64v-128h-128z" />
    <glyph glyph-name="w" unicode="w" horiz-adv-x="512" 
d="M64 0v64h-64v320h128v-192h64v64h64v-64h64v192h128v-320h-64v-64h-64v64h-64v64h-64v-64h-64v-64h-64z" />
    <glyph glyph-name="x" unicode="x" 
d="M0 0v64h64v128h64v64h-64v64h-64v64h128v-64h128v64h128v-64h-64v-64h-64v-64h64v-128h64v-64h-128v64h-128v-64h-128z" />
    <glyph glyph-name="y" unicode="y" 
d="M64 -192v64h-64v64h128v-64h128v192h-192v64h-64v256h128v-256h128v256h128v-512h-64v-64h-256z" />
    <glyph glyph-name="z" unicode="z" 
d="M0 0v128h64v64h64v64h64v64h-192v64h384v-64h-64v-64h-64v-64h-64v-64h-64v-64h256v-64h-384z" />
    <glyph glyph-name="braceleft" unicode="{" 
d="M192 -64v64h-64v192h-64v64h-64v64h64v64h64v192h64v64h192v-64h-128v-192h-64v-64h-64v-64h64v-64h64v-192h128v-64h-192z" />
    <glyph glyph-name="bar" unicode="|" horiz-adv-x="192" 
d="M0 0v768h128v-768h-128z" />
    <glyph glyph-name="braceright" unicode="}" 
d="M0 -64v64h128v192h64v64h64v64h-64v64h-64v192h-128v64h192v-64h64v-192h64v-64h64v-64h-64v-64h-64v-192h-64v-64h-192z" />
    <glyph glyph-name="asciitilde" unicode="~" horiz-adv-x="704" 
d="M0 256v64h64v64h64v64h256v-64h64v-64h64v64h128v-64h-64v-64h-192v64h-64v64h-128v-64h-64v-64h-128z" />
  </font>
</defs>
</svg>
